osu file format v13

[General]
AudioFilename: kalafina - heavenly blue.mp3
AudioLeadIn: 2000
PreviewTime: 56567
Countdown: 0
SampleSet: Normal
StackLeniency: 0.7
Mode: 0
LetterboxInBreaks: 0
WidescreenStoryboard: 0

[Editor]
DistanceSpacing: 1
BeatDivisor: 4
GridSize: 4
TimelineZoom: 2.1

[Metadata]
Title:heavenly blue ~TVsize~
TitleUnicode:heavenly blue ~TVsize~
Artist:Kalafina
ArtistUnicode:Kalafina
Creator:Lust
Version:Light Insane
Source:アルドノア・ゼロ
Tags:aldnoah.zero Kajiura Yuki 梶浦 Wakana Ōtaki Keiko Kubota aniplex nitroplus troyca a-1 pictures summer 2014 cloudchaser cloudsplash16 zare irreversible
BeatmapID:462589
BeatmapSetID:194861

[Difficulty]
HPDrainRate:7
CircleSize:4
OverallDifficulty:7
ApproachRate:8
SliderMultiplier:2
SliderTickRate:1

[Events]
//Background and Video events
0,0,"bg.jpg",0,0
Video,0,"vid.avi"
//Break Periods
//Storyboard Layer 0 (Background)
//Storyboard Layer 1 (Fail)
//Storyboard Layer 2 (Pass)
//Storyboard Layer 3 (Foreground)
//Storyboard Sound Samples
//Background Colour Transformations
3,100,163,162,255

[TimingPoints]
8,382.158302707592,4,2,0,20,1,0
6122,-100,4,3,0,50,0,0
30580,-100,4,2,0,50,0,0
55420,-100,4,2,0,65,0,0
56567,-100,4,1,0,60,0,1
79783,-100,4,2,0,20,0,1
79879,-100,4,1,0,60,0,1
80165,-100,4,2,0,20,0,1
80261,-100,4,1,0,60,0,1
83891,-100,4,2,0,50,0,0
86757,-100,4,2,0,5,0,0

[Colours]
Combo1 : 128,0,255
Combo2 : 0,128,255
Combo3 : 0,128,128
Combo4 : 128,128,192

[HitObjects]
256,192,2683,12,0,5931,0:0:0:0:
116,318,6122,6,0,P|161:334|212:324,1,100,14|0,0:0|3:0,0:0:0:0:
396,318,6504,2,0,P|351:334|300:324,1,100,10|0,0:0|0:0,0:0:0:0:
256,192,6886,2,0,P|349:153|448:194,1,200,2|8,0:0|0:0,0:0:0:0:
396,318,7460,2,0,L|190:318,1,200,6|0,0:0|0:0,0:0:0:0:
124,199,8033,2,0,P|115:149|122:91,1,100,8|0,0:0|0:0,0:0:0:0:
256,192,8415,2,0,P|265:242|258:300,1,100,2|0,0:0|0:0,0:0:0:0:
129,339,8797,1,8,0:0:0:0:
6,271,8988,1,2,0:0:0:0:
184,72,9179,6,0,P|287:56|372:111,1,200,6|8,0:0|0:0,0:0:0:0:
387,242,9753,1,2,0:0:0:0:
256,192,9944,2,0,B|213:184|213:184|150:196,1,100,0|2,0:0|0:0,0:0:0:0:
387,242,10326,2,0,B|430:250|430:250|493:238,1,100,10|0,0:0|0:0,0:0:0:0:
147,279,10708,1,6,0:0:0:0:
278,329,10899,1,0,0:0:0:0:
387,242,11090,1,8,0:0:0:0:
256,192,11281,1,6,0:0:0:0:
408,380,11472,2,0,L|511:380,1,100,0|0,0:0|0:0,0:0:0:0:
278,329,11854,2,0,L|175:329,1,100,8|0,0:0|0:0,0:0:0:0:
387,242,12237,6,0,P|382:141|326:62,1,200,6|10,0:0|0:0,0:0:0:0:
185,62,12810,2,0,P|129:143|124:241,1,200,2|2,0:0|0:0,0:0:0:0:
256,290,13383,2,0,B|300:308|300:308|355:309,1,100,8|0,0:0|0:0,0:0:0:0:
125,242,13765,2,0,B|81:224|81:224|26:223,2,100,6|0|8,0:0|0:0|0:0,0:0:0:0:
148,380,14338,1,2,0:0:0:0:
256,289,14530,2,0,P|265:241|256:192,1,100,0|2,0:0|0:0,0:0:0:0:
147,6,14912,2,0,P|138:55|147:104,1,100,8|0,0:0|0:0,0:0:0:0:
365,104,15294,6,0,P|373:55|364:6,2,100,6|0|8,0:0|0:0|0:0,0:0:0:0:
256,192,15867,2,0,L|148:192,2,100,2|0|2,0:0|0:0|0:0,0:0:0:0:
386,242,16440,2,0,P|436:251|492:240,1,100,8|0,0:0|0:0,0:0:0:0:
233,53,16822,2,0,P|131:42|26:71,1,200,6|8,0:0|0:0,0:0:0:0:
60,204,17396,2,0,P|159:215|256:192,1,200,2|2,0:0|0:0,0:0:0:0:
365,104,17969,2,0,P|373:55|364:6,1,100,12|8,0:0|0:0,0:0:0:0:
277,330,18351,6,0,B|319:353|319:353|371:353,1,100,6|0,0:0|0:0,0:0:0:0:
256,192,18733,2,0,B|214:169|214:169|161:169,1,100,10|0,0:0|0:0,0:0:0:0:
386,242,19115,2,0,P|430:222|456:178,1,100,2|0,0:0|0:0,0:0:0:0:
146,279,19498,2,0,P|102:299|76:343,1,100,8|0,0:0|0:0,0:0:0:0:
256,192,19880,2,0,L|256:92,1,100,6|0,0:0|0:0,0:0:0:0:
120,58,20262,1,8,0:0:0:0:
370,11,20453,2,0,P|462:47|517:131,1,200,2|0,0:0|0:0,0:0:0:0:
494,266,21026,2,0,L|440:352,1,100,10|0,0:0|0:0,0:0:0:0:
256,192,21408,6,0,L|310:106,2,100,6|0|10,0:0|0:0|0:0,0:0:0:0:
303,324,21982,2,0,P|252:335|205:319,1,100,2|0,0:0|0:0,0:0:0:0:
117,213,22364,1,0,0:0:0:0:
256,192,22555,2,0,P|307:181|354:197,1,100,8|0,0:0|0:0,0:0:0:0:
117,213,22937,2,0,B|105:168|105:168|112:95,2,100,6|0|10,0:0|0:0|0:0,0:0:0:0:
70,344,23510,2,0,L|41:244,1,100,2|0,0:0|0:0,0:0:0:0:
110,114,23892,1,0,0:0:0:0:
207,320,24083,2,0,P|254:335|303:324,1,100,8|0,0:0|0:0,0:0:0:0:
407,229,24466,6,0,B|457:158|419:82|419:82|388:127,1,200,6|8,0:0|0:0,0:0:0:0:
493,20,25039,2,0,P|397:6|318:84,1,200,2|2,0:0|0:0,0:0:0:0:
256,192,25612,2,0,L|256:295,1,100,8|0,0:0|0:0,0:0:0:0:
188,69,25994,2,0,P|114:5|19:20,1,200,6|8,0:0|0:0,0:0:0:0:
86,142,26568,2,0,P|160:206|256:192,1,200,2|0,0:0|0:0,0:0:0:0:
188,69,27141,2,0,L|18:194,1,200,10|14,0:0|0:0,0:0:0:0:
256,192,27714,12,4,30198,0:0:0:0:
168,79,30580,6,0,L|60:67,1,100,6|0,0:0|0:0,0:0:0:0:
104,203,30962,2,0,L|212:215,1,100,0|0,0:0|0:0,0:0:0:0:
408,203,31344,2,0,L|308:214,1,100,2|0,0:0|0:0,0:0:0:0:
344,79,31726,2,0,L|443:67,1,100,0|0,0:0|0:0,0:0:0:0:
203,214,32109,2,0,L|3:191,2,200,2|0|6,0:0|0:0|0:0,0:0:0:0:
302,312,33064,1,0,0:0:0:0:
338,176,33255,2,0,P|353:124|343:78,1,100,0|0,0:0|0:0,0:0:0:0:
203,214,33637,6,0,P|188:266|198:312,1,100,2|0,0:0|0:0,0:0:0:0:
338,176,34020,2,0,P|353:124|343:78,2,100,0|0|2,0:0|0:0|0:0,0:0:0:0:
442,269,34593,1,0,0:0:0:0:
342,368,34784,2,0,B|247:333|247:407|147:370,1,200,0|2,0:0|0:0,0:0:0:0:
319,265,35548,2,0,P|400:272|444:376,2,200,0|6|2,0:0|0:0|0:0,0:0:0:0:
148,370,36695,6,0,P|57:340|28:215,1,200,6|0,0:0|0:0,0:0:0:0:
27,151,37268,1,2,0:0:0:0:
126,143,37459,2,0,P|218:174|247:299,1,200,2|0,0:0|0:0,0:0:0:0:
254,264,38223,2,0,P|162:233|133:108,1,200,6|0,0:0|0:0,0:0:0:0:
130,43,38796,1,2,0:0:0:0:
230,34,38987,2,0,P|321:65|350:190,1,200,2|0,0:0|0:0,0:0:0:0:
353,256,39561,1,0,0:0:0:0:
312,347,39752,6,0,P|397:345|452:246,1,200,4|0,0:0|0:0,0:0:0:0:
457,154,40325,1,2,0:0:0:0:
357,155,40516,2,0,L|152:156,1,200,2|0,0:0|0:0,0:0:0:0:
112,347,41281,2,0,L|312:347,1,200,6|0,0:0|0:0,0:0:0:0:
404,308,41854,1,2,0:0:0:0:
435,213,42045,2,0,P|448:124|359:56,1,200,2|8,0:0|3:0,0:0:0:0:
357,155,42618,1,8,3:0:0:0:
323,249,42809,6,0,L|121:249,1,200,4|2,2:0|0:0,0:0:0:0:
23,249,43382,1,0,0:0:0:0:
6,150,43574,2,0,P|0:97|7:50,1,100,6|0,0:0|0:0,0:0:0:0:
123,249,43956,2,0,P|129:302|122:349,1,100,2|0,0:0|0:0,0:0:0:0:
106,150,44338,2,0,P|156:153|203:188,1,100,2|0,0:0|0:0,0:0:0:0:
23,249,44720,1,2,0:0:0:0:
6,150,44911,1,0,0:0:0:0:
123,249,45102,2,0,P|215:281|296:191,1,200,6|2,0:0|0:0,0:0:0:0:
279,122,45675,1,0,0:0:0:0:
197,180,45866,6,0,P|165:272|255:353,1,200,6|2,0:0|0:0,0:0:0:0:
320,316,46440,1,0,0:0:0:0:
288,222,46631,2,0,L|277:106,1,100,6|0,0:0|0:0,0:0:0:0:
183,91,47013,2,0,P|126:120|111:151,1,100,2|0,0:0|0:0,0:0:0:0:
320,316,47395,2,0,P|377:287|392:256,1,100,2|0,0:0|0:0,0:0:0:0:
366,159,47777,1,2,0:0:0:0:
288,222,47968,1,0,0:0:0:0:
462,185,48159,2,0,P|446:100|332:67,1,200,6|2,0:0|0:0,0:0:0:0:
268,123,48733,1,0,0:0:0:0:
221,297,48924,6,0,B|163:293|124:322|124:322|80:291|85:224,1,200,4|0,0:0|0:0,0:0:0:0:
288,222,49497,1,0,0:0:0:0:
320,316,49688,2,0,L|421:315,2,100,6|0|0,0:0|0:0|0:0,0:0:0:0:
288,222,50261,1,0,0:0:0:0:
190,198,50452,2,0,P|164:155|162:105,1,100,6|0,0:0|0:0,0:0:0:0:
268,123,50835,2,0,P|278:75|312:39,1,100,2|0,0:0|0:0,0:0:0:0:
370,121,51217,2,0,P|412:95|462:94,2,100,2|0|2,0:0|0:0|0:0,0:0:0:0:
321,209,51790,1,0,0:0:0:0:
462,94,51981,5,4,0:0:0:0:
317,36,52172,2,0,L|210:36,1,100,6|0,0:0|0:0,0:0:0:0:
321,209,52554,2,0,L|428:209,2,100,2|0|2,0:0|0:0|0:0,0:0:0:0:
220,209,53128,1,0,0:0:0:0:
131,255,53319,2,0,P|45:241|17:132,1,200,6|0,0:0|0:0,0:0:0:0:
220,209,53892,2,0,P|224:288|123:360,1,200,6|0,0:0|0:0,0:0:0:0:
48,311,54465,1,8,3:0:0:0:
135,155,54656,1,0,0:0:0:0:
131,255,54847,1,8,3:0:0:0:
225,109,55038,6,0,L|226:4,1,100,0|0,3:0|0:0,0:0:0:0:
309,163,55420,2,0,L|374:177,3,66.6666666666667,4|8|0|4,0:3|0:3|0:0|3:0,0:0:0:0:
361,276,55994,1,0,0:0:0:0:
263,292,56185,1,8,3:0:0:0:
166,290,56376,1,4,3:0:0:0:
83,238,56567,6,0,P|34:151|80:46,1,200,4|8,0:0|0:0,0:0:0:0:
203,91,57140,2,0,P|233:184|184:268,1,200,4|0,0:0|0:0,0:0:0:0:
92,374,57713,2,0,L|0:328,1,100,8|0,0:0|0:0,0:0:0:0:
286,329,58096,2,0,L|378:375,1,100,0|0,0:0|0:0,0:0:0:0:
488,291,58478,2,0,P|501:237|488:184,1,100,8|0,0:0|0:0,0:0:0:0:
360,40,58860,2,0,P|351:89|364:137,2,100,0|0|8,0:0|0:0|0:0,0:0:0:0:
499,55,59433,1,0,0:0:0:0:
355,276,59624,6,0,P|262:284|171:220,1,200,4|8,0:0|0:0,0:0:0:0:
184,86,60197,2,0,P|281:80|362:135,1,200,4|0,0:0|0:0,0:0:0:0:
58,150,60771,2,0,P|38:80|48:46,1,100,8|0,0:0|0:0,0:0:0:0:
179,227,61153,2,0,P|199:297|189:331,1,100,0|0,0:0|0:0,0:0:0:0:
184,86,61535,1,8,0:0:0:0:
302,161,61726,1,0,0:0:0:0:
298,300,61917,2,0,L|398:300,1,100,0|0,0:0|0:0,0:0:0:0:
154,289,62299,2,0,L|54:289,1,100,8|4,0:0|0:0,0:0:0:0:
302,161,62681,6,0,P|397:193|437:292,1,200,0|8,0:0|0:0,0:0:0:0:
298,300,63255,1,0,0:0:0:0:
162,150,63446,2,0,P|169:100|208:57,1,100,0|0,0:0|0:0,0:0:0:0:
154,289,63828,2,0,P|97:279|61:242,1,100,8|0,0:0|0:0,0:0:0:0:
298,300,64210,2,0,P|283:357|257:388,1,100,4|0,0:0|0:0,0:0:0:0:
302,161,64592,2,0,P|355:168|394:201,1,100,8|0,0:0|0:0,0:0:0:0:
154,289,64974,2,0,L|54:289,1,100,0|0,0:0|0:0,0:0:0:0:
302,161,65357,2,0,L|402:161,1,100,8|0,0:0|0:0,0:0:0:0:
54,289,65739,6,0,P|30:192|76:93,1,200,4|8,0:0|0:0,0:0:0:0:
206,113,66312,2,0,P|230:210|184:309,1,200,4|0,0:0|0:0,0:0:0:0:
130,175,66885,2,0,P|76:185|26:175,1,100,12|0,0:0|0:0,0:0:0:0:
143,25,67267,2,0,P|193:8|256:20,1,100,0|0,0:0|0:0,0:0:0:0:
396,130,67650,2,0,P|350:148|301:144,1,100,8|0,0:0|0:0,0:0:0:0:
130,175,68032,2,0,P|83:161|27:163,2,100,4|0|8,0:0|0:0|0:0,0:0:0:0:
220,282,68605,1,0,0:0:0:0:
333,364,68796,6,0,P|421:333|457:219,1,200,4|8,0:0|0:0,0:0:0:0:
220,282,69369,2,0,P|199:339|200:378,1,100,4|0,0:0|0:0,0:0:0:0:
364,138,69751,2,0,P|385:81|384:42,2,100,0|8|4,0:0|0:0|0:0,0:0:0:0:
223,141,70325,1,0,0:0:0:0:
117,50,70516,1,0,0:0:0:0:
220,282,70707,2,0,L|325:282,1,100,8|0,0:0|0:0,0:0:0:0:
223,142,71089,2,0,L|118:141,1,100,0|0,0:0|0:0,0:0:0:0:
364,138,71471,1,8,0:0:0:0:
220,282,71662,1,0,0:0:0:0:
117,50,71853,6,0,P|202:4|314:35,1,200,4|8,0:0|0:0,0:0:0:0:
90,187,72426,2,0,P|33:168|8:136,1,100,4|0,0:0|0:0,0:0:0:0:
223,142,72809,1,0,0:0:0:0:
220,282,73000,2,0,P|168:328|134:337,1,100,12|0,0:0|0:0,0:0:0:0:
341,215,73382,1,0,0:0:0:0:
339,354,73573,1,0,0:0:0:0:
461,286,73764,2,0,L|529:209,1,100,8|0,0:0|0:0,0:0:0:0:
220,282,74146,2,0,L|152:359,1,100,0|0,0:0|0:0,0:0:0:0:
341,215,74528,2,0,L|408:137,1,100,8|0,0:0|0:0,0:0:0:0:
90,187,74911,6,0,P|64:274|97:381,1,200,4|8,0:0|0:0,0:0:0:0:
220,282,75484,1,0,0:0:0:0:
223,142,75675,2,0,P|185:73|56:57,1,200,4|8,0:0|0:0,0:0:0:0:
90,187,76248,1,0,0:0:0:0:
341,215,76439,5,0,0:0:0:0:
355,200,76821,1,8,0:0:0:0:
369,185,77203,1,0,0:0:0:0:
383,170,77586,1,8,0:0:0:0:
397,155,77968,6,0,P|429:107|341:119,1,200,4|8,0:0|0:0,0:0:0:0:
348,255,78541,1,0,0:0:0:0:
480,301,78732,2,0,L|479:195,1,100,4|0,0:0|0:0,0:0:0:0:
348,255,79114,2,0,L|347:355,1,100,8|0,0:0|0:0,0:0:0:0:
397,155,79496,6,0,P|331:149|259:196,1,150,0|0,0:0|0:0,0:0:0:0:
262,191,79879,2,0,P|267:118|226:56,1,150,8|0,0:0|0:0,0:0:0:0:
226,56,80261,2,0,B|279:102|320:110|320:110|345:149|407:157,1,200,0|8,0:0|0:0,0:0:0:0:
492,53,80834,1,0,0:0:0:0:
262,191,81025,6,0,P|165:208|67:160,1,200,4|8,0:0|0:0,0:0:0:0:
237,283,81598,2,0,P|334:267|432:315,1,200,4|0,0:0|0:0,0:0:0:0:
424,308,82172,1,8,0:0:0:0:
296,364,82363,1,0,0:0:0:0:
262,191,82554,2,0,P|277:132|231:3,1,200,4|8,0:0|0:0,0:0:0:0:
237,283,83127,2,0,P|306:277|354:164,1,200,4|0,0:0|0:0,0:0:0:0:
262,191,83700,1,8,0:0:0:0:
296,364,83891,1,4,0:0:0:0:
256,192,83987,12,0,86757,0:0:0:0:
